angèle flou mp3

The comment form collects your name, email and content to allow us keep track of the comments placed on the website. Instrumental Version MP3. 12. Vocal Backing Track MP3 $1.99. Download Hungama Music app to get access to unlimited free mp3 songs, free movies, latest music videos, online radio, new TV shows and much more at Hungama. Angèle - Ta reine 11. Angèle (3) + Brol = 2 awards at the occasion of "Les Victoires de la Musique 2019" (2019-02-08): Revelation Album of the Year & Audiovisual Production of the year for the video of "Tout Oublier". 21 - Mylène Farmer - Des ... 9 - Boulevard des Airs - Allez reste.mp3 download. Además, te ofrecemos la oportunidad de escuchar música online, y como consecuencia, bajarla en forma segura, frenando que tu computadora de escritorio, o teléfono, se infecte con software malintencionados. Your No.1 source for MP3 instrumental tracks. Discover more music, concerts, videos, and pictures with the largest catalogue online at Last.fm. In the same key as the original: Fm This track ends without fading out Duration: 3:18 - Sample at: 1:32. This title is a cover version of Flou as made famous by Angèle. Por fin terminas de encontrar Angele Flou.Pero no solo eso, sino te hallas a nada de descargar mp3 gratis de muy buena calidad como no ofrecen otras paginas. This title is a cover of Victime des réseaux as made famous by Angèle. Vocal Backing Track MP3 $1.99. Macklemore & Patrick Stump of Fall Out Boy) 12. Same as the original tempo: 113 BPM. Angèle donne ses premiers concerts dans des cafés de Bruxelles. Flou Your No.1 source for MP3 instrumental tracks, This title is a cover of Jalousie as made famous by Angèle, Duration: 3:48 - Preview at: Brol is the first studio album released by Angèle, a young Belgian artist from Brussels. download 1 file . Released. Release date: 2018 - Martin Garrix - Summer Days (feat. download 1 file . Angèle – Flou (Live) | Vevo DSCVR ARTISTS TO WATCH 2019 Download mp3. 3.6M . DR6 -0.21 dB -8.08 dB 3:22 01-La thune Angèle - Je veux tes yeux 10. Ellie Goulding - Close To Me 14. 3.0M . With […] Angèle – Flou (Live) | Vevo DSCVR ARTISTS TO WATCH 2019 Download mp3 qeshu Posted on September 5, 2019 Angèle – Flou – an exclusive live performance for Vevo DSCVR ARTISTS TO WATCH 2019, an annual series… "15. Instrumental Version MP3. Here you can buy and download music mp3 Angele. Brol La Suite 2019 S'en aller (feat. Werbefrei streamen oder als CD und MP3 kaufen bei Amazon.de. Key. La loi de Murphy. SHOW ALL. [ OxTorrent.com ] VA - 110 Hits 2020-5CD-2019 (WEB.MP3 a 320kbps) EICHBAUM 6 torrent download locations Download Direct [ OxTorrent.com ] VA - 110 Hits 2020-5CD-2019 (WEB.MP3 a 320kbps) EICHBAUM could be available for direct download Spónsored Link google.com [ OxTorrent.com ] VA - 110 Hits 2020-5CD-2019 (WEB.MP3 a 320kbps) EICHBAUM 10 months torrent9.pl 110 Hits 2020 Musique 19 tracks (64:32). Flou - Acapella Angèle. In the same key as the original: Fm This song ends without fade out Duration: 03:18 - Preview at: 01:32. Flou - Angèle MP3, Paroles et clip à écouter et télécharger légalement Macklemore & Patrick Stump of Fall Out Boy).mp3" Tempo: variable (around 69 BPM) ... Flou. Vocal Backing Track MP3 $1.99. 19 - Angèle - Flou.mp3 download. Same as the original tempo: 92 BPM. 12. Clean Bandit - Baby (feat. Трэп. 2.9m Followers, 583 Following, 453 Posts - See Instagram photos and videos from Angèle (@angele_vl) Save my name, email, and website in this browser cookies for the next time I comment. Flou Lyrics: J'ai commencé par Instagram / C'était cool, j'avais un très bon programme / Petit concert dans des bars vides / Ma baby-sitter la première à m'suivre / Ensuite tout a changé très Télécharger Nrj Holiday 2019 en torrent . Flou. "15. ... Flou. Angèle - Flou 06. Perdus download. Flou - Angèle - MP3 instrumental karaoke. RELEASED OCTOBER 5, 2018 ℗ 2018 ANGÈLE VL RECORDS. Vocal Backing Track MP3 $1.99. Angèle. This title is a cover of Flou as made famous by Angèle. download 1 file . Angèle Van Laeken (born 3 December 1995), better known by her stage name Angèle, is a Belgian singer-songwriter, musician, pianist, record producer and actress. 20 - Lara Fabian - Par Amour.mp3 download. Same as the original tempo: 113 BPM. DR8 -0.24 dB -11.89 dB 3:13 06-Nombreux Angèle feat. 1:32. An icon used to represent a menu that can be toggled by interacting with this icon. View credits, reviews, tracks and shop for the 2018 180 Grs, White Vinyl release of Brol on Discogs. CpasBien - Films et Séries en torrents sur CpasBien, Cestpasbien, telecharger torrent, films, series sur c pas bien Oui ou non download. download 28 Files download 28 Original. Télécharger Nrj Holiday 2019 en torrent . 1:04:43. 07 Angèle Ta Reine ( Version Orchestrale) ... Angèle - Flou.ogg download. 0. Bits per sample: 24 Perdus download. Flou - Angèle - Custom Backing Track MP3. Download: MP3, 320 Kbit Listens: 79 Downloads: 18 Styles: Electro Remix to: Angèle - Flou Duration: 2:55 BPM: 125 Key: Fm Mastered Size: 6.7Mb Recording: 20 September 2019 Label ℗ 2019 Angèle VL Records. Angèle - La Thune 02. Vitaa - VERSUS 08. Angèle - La Loi de Murphy 06. At only 22, Belgium singer Angèle stands out from the masses and perfectly embodies what her generation is about, transcending the musical, sartorial, social or ethnic divides. Angèle. Find the best place to Brol movie songs download list. Stream ad-free or purchase CD's and MP3s now on Amazon.co.uk.
12. Shop Vinyl and CDs and complete your Angèle collection. ================================================================================. Music Videos. DR5 -0.22 dB -8.42 dB 3:17 12-Flou ... Flou. Name Last modified Size; Go to parent directory: 1 - Angèle - Balance ton quoi.afpk: 05-May-2019 05:50: 34.5K: 1 - Angèle - Balance ton quoi.mp3: 05-May-2019 05:39 In the same key as the original: Fm. File type. November 7, 2019. DR7 -0.30 dB -9.02 dB 3:15 05-La loi de Murphy She was born in Uccle, Brussels-Capital Region. Victime des réseaux - Angèle - MP3 instrumental karaoke. Flou made famous by Angèle • 2 music tracks in MP3 instrumental version • 1 music track with vocals (cover) Analyzed: Angele / Brol This title is a cover of Perdus as made famous by Angèle. Angèle – Flou (Live) | Vevo DSCVR ARTISTS TO WATCH 2019 Download mp3. Angèle - Victime des réseaux 08. 3.4M . Entdecken Sie Brol [Explicit] von Angèle bei Amazon Music. 0. Insomnies download. Angèle - Jalousie 04. Download Flou song on Gaana.com and listen Brol Flou song offline. Watch the video for Flou from Angèle's Playlist hits Automne 2019 Vol.2 for free, and see the artwork, lyrics and similar artists. Sam Smith - Dancing With A Stranger 09. Vocal Backing Track MP3 $1.99. Download: MP3, 320 Kbit Listens: 56 Downloads: 17 Styles: Electro Remix to: Angèle - Flou Duration: 4:27 BPM: 125 Key: Fm Mastered Size: 10.2Mb Recording: 20 September 2019 Streaming and by permanent download to your computer and/or device. Flou Angèle More by Angèle. download 1 file . Channels: 2 Angele - Brol 24 bit Hi-Res Year Of Release: 2018 Genre: Pop Format: Flac, Tracks Bitrate: lossless, 24bit Sample Rate: 44100Hz Audio Channels: 2.0 Total Size: November 30, 2020 WRZmusic Jenifer - Comme c'est bon 13. Tempo 113 bpm. Official DR value: DR6, Samplerate: 44100 Hz TORRENT download. Гангста-рэп. 3.0M . What is the title? This title is a cover of Victime des réseaux as made famous by Angèle. ... or by exporting MP3 files to your computer and playing on any MP3 compatible music player. Ca khúc Flou do ca sĩ Angele thể hiện, thuộc thể loại Pop.Các bạn có thể nghe, download (tải nhạc) bài hát flou mp3, playlist/album, MV/Video flou miễn phí tại NhacCuaTui.com. Angèle - Flou (Gregcy Extended Remix) PR 0,6 Like Give Premium. Vocal Backing Track MP3 $1.99. download 19 files . Werbefrei streamen oder als CD und MP3 kaufen bei Amazon.de. MP3. Oui ou non download. Stream ad-free or purchase CD's and MP3s now on Amazon.co.uk. Stream ad-free or purchase CD's and MP3s now on Amazon.com. How would you rate this track? 3:16 PREVIEW 12 SONGS, 41 MINUTES. Using BitTorrent is legal, downloading copyrighted material isn’t. Give it a 2 stars? Listen online 19 songs from La Loi De Murphy (CDS) 2017 - Angele. You can buy latest album La Thune (CDS) 2018 - Angele. An icon used to represent a menu that can be toggled by interacting with this icon. Angèle - Nombreux 07. Download it, sing it. DR6 -0.22 dB -8.24 dB 3:25 09-Je veux tes yeux Contributions: 61 translations, 974 thanks received, 8 translation requests fulfilled for 4 members, explained 1 idiom, left 3 comments VA - Music Pack 062 (2020) torrent download location Download Direct VA - Music Pack 062 (2020) could be available for direct download Spónsored Link google.com VA - Music Pack 062 (2020) 3 months. Angèle - Les Matins 09. Angèle – Flou – an exclusive live performance for Vevo DSCVR ARTISTS TO WATCH 2019, an annual series highlighting those that are shaping the future of music. Access type. Listen free to Angèle – Brol, la suite (La Thune, Balance ton quoi and more). French Pop Music, Electro, In French Total length. Angèle. Angèle. DR6 -0.22 dB -8.62 dB 2:55 08-Les matins History titles awarded on the radio Activ Radio-mp3-192K. Community Audio. --------------------------------------------------------------------------------, DR Peak RMS Duration Track This track ends without fading out Duration: 3:18 - Sample at: 1:32. Instrumental Version MP3. Flou Your No.1 source for MP3 instrumental tracks, This title is a cover of Jalousie as made famous by Angèle, Duration: 3:48 - Preview at: Brol is the first studio album released by Angèle, a young Belgian artist from Brussels. This title is a cover version of Flou as made famous by Angèle. Latest titles and artists played on activ-radio-mp3. The acapella for Flou is in the key of F Minor, has a tempo of 113 bpm, and is 3 minutes and 16 seconds long. Ванильный рэпчик. Listen to free music and earn Hungama Coins, redeem Hungama coins … VBR M3U download. With backing vocals. The instrumental for Flou is in the key of F Minor, has a tempo of 113 bpm, and is 3 minutes and 16 seconds long. 3.3M . With backing vocals. Same as the original tempo: 92 BPM. Martin Garrix - Summer Days (feat. Pop, Généraliste, Informations, Top 50, Rock. Key. Check out Brol [Explicit] by Angèle on Amazon Music. MARINA & Luis Fonsi) 11. Check out Flou by Angèle on Amazon Music. 3:16 PREVIEW 12 SONGS, 41 MINUTES. VBR MP3 . [ OxTorrent.com ] VA.100.Hits.Winter.2020.2019.MP3.320Kbps 5 CD (coffret) 7 torrent download locations Download Direct [ OxTorrent.com ] VA.100.Hits.Winter.2020.2019.MP3.320Kbps 5 CD (coffret) could be available for direct download Spónsored Link google.com [ OxTorrent.com ] VA.100.Hits.Winter.2020.2019.MP3.320Kbps 5 CD (coffret) 12 months torrent9.pl 100 Hits Winter … Your No.1 source for MP3 instrumental tracks, This title is a cover of Flou as made famous by Angèle, Duration: 03:18 - Preview at: Victime des réseaux - Angèle - MP3 instrumental karaoke. DR5 -0.22 dB -8.65 dB 3:33 10-Ta reine Macklemore & Patrick Stump of Fall Out Boy).mp3" Format: MP3 320 Kbps Angèle. Daily updates! Brol La Suite 2019 S'en aller (feat. DR6 -0.22 dB -8.92 dB 3:46 03-Jalousie Flou Angèle More by Angèle. We would like to show you a description here but the site won’t allow us. -------------------------------------------------------------------------------- Music Videos. download 19 files . Please read and accept our website Terms and Privacy Policy to post a comment. 07 Angèle Ta Reine ( Version Orchestrale) ... Angèle - Flou.ogg download. Angèle. Roméo Elvis - Tout oublier 05. With backing vocals. Key F Minor. Angèle - Flou (Gregcy Radio Remix) PR 0,5 Like Give Premium. VA - 100 Hits Winter 2020 [5CD] (2020) MP3 7 torrent download locations Download Direct VA - 100 Hits Winter 2020 [5CD] (2020) MP3 could be available for direct download Spónsored Link google.com VA - 100 Hits Winter 2020 [5CD] (2020) MP3 10 months torlock.com VA - 100 Hits Winter 2020 [5CD] (2020) MP3 Music 6 hours monova.org VA - 100 Hits Winter 2020 [5CD] (2020) MP3 Other Brol Songs - Download Brol mp3 songs to your Hungama account. Codec: FLAC 05. Faouzia) - From 'SCOOB!' TORRENT download. Русский рэп: открытия. Flou - Angèle - MP3 backing track. Genres. La loi de Murphy. DR6 -0.22 dB -8.84 dB 3:23 07-Victime des réseaux DR6 -0.22 dB -7.57 dB 4:16 11-Flemme Same as the original tempo: 113 BPM. All files available for download are reproduced tracks, they're not the original music. Rolling Stones – Voodoo Lounge (Mastered At Abbey Road Studios) 1994 (2020) [DSD 128, LP], Nick Cave – Idiot Prayer (Nick Cave Alone At Alexandra Palace) (2020) [Vinyl], Chance the Rapper and Jeremih – Merry Christmas Lil Mama: The Gift That Keeps On Giving (17 tracks) (2020) [24bit Hi-Res], Claude Williamson Trio – South Of The Border West Of The Sun 1992 (2017) [SACD], Pye Corner Audio – Discography [2005-2020], Creedence Clearwater Revival ‎– Creedence Clearwater Revival (2001) [6CD BoxSet], King Crimson – Complete 1969 Recordings (2020) [20CD BoxSet], Steve Wynn – Decade (2020) [24bit Hi-Res], John Kameel Farah – Strands (Solo Piano Improvisations) (2018) [24bit Hi-Res], Hartmut Rohde – Josef Tal: Works for Viola (2018) [24bit Hi-Res], Dream Theater – Web Collection [1989-2020], Andrew Weatherall – Discography [1990-2020], Angèle – Brol La Suite (2019) [24bit Hi-Res], Verve Jazzclub Collection (155 Releases) [2006-2013], The Very Best of 90s – Vol.1-4 [2010-2012], Top Of The Pops: Year by Year Collection (1964-2006) (2008) [43CD], Claude Williamson Trio – El Noche De Espana (2019) [SACD], Rick Wakeman And The English Rock Ensemble ‎- No Earthly Connection (1976) [DSD 128, LP], Melody Gardot – Live In Europe (2018) [DSD 128, Limited Edition, Vinyl], Justin Timberlake – The Complete 20/20 Experience (2013) [DSD 128, LP].

Généalogie Jura Suisse, Trotro Et Zaza, 14 Juillet Montargis 2020, Endroit Insolite Gironde, Opodo Cars Téléphone, Aimé Césaire Cahier D'un Retour Au Pays Natal, Synonyme De Souple, Pigeon Aux Lentilles Mots Fléchés, Volkswagen T4 Multivan 2000,

Laisser un commentaire

Votre adresse de messagerie ne sera pas publiée. Les champs obligatoires sont indiqués avec *